Quick Licks - Steve Lukather (Rock Shuffle)

Download Now

Quick Licks - Steve Lukather (Rock Shuffle)

Quick Licks - Steve Lukather (Rock Shuffle)
DVDRip | English | AVI + MP3 Jam tracks | 672 x 368 | XviD ~600 kbps | 25 fps
MP3 80 Kbps 48.0 KHz | 1 channel | 02:13:04 + jam tracks: 00:04:12 | 660.4 MB
Genre: eLearning Video / Guitar lesson


Learn killer rock licks in the style of Steve Lukather, Toto's long time guitarist, composer, and one of the most versatile musicians of our time! Each Quick Licks DVD includes an arsenal of licks in the style of your chosen artist to add to your repertoire, plus backing tracks to practice your new licks and techniques.
Includes:

Introduction & Technique (10:01)
Backing Track Explanation (13:19)
Scales To Use & 1st Section (Em) (45:34)
2nd Section (G7) (57:18)
Conclusion (2:41)
Performance (4:11)
Quick Licks (Steve Lukather) - Jam Track (4:12)

General
Complete name : 04_-_2nd_Section_(G7).avi
Format : AVI
Format/Info : Audio Video Interleave
File size : 281 MiB
Duration : 57 min 18 s
Overall bit rate : 686 kb/s

Video
ID : 0
Format : MPEG-4 Visual
Format profile : Advanced [email protected]
Format settings : BVOP2 / GMC3 / QPel
Format settings, BVOP : 2
Format settings, QPel : Yes
Format settings, GMC : 3 warppoints
Format settings, Matrix : Default (MPEG)
Muxing mode : Packed bitstream
Codec ID : XVID
Codec ID/Hint : XviD
Duration : 57 min 18 s
Bit rate : 600 kb/s
Width : 672 pixels
Height : 368 pixels
Display aspect ratio : 1.85:1
Frame rate : 25.000 FPS
Color space : YUV
Chroma subsampling : 4:2:0
Bit depth : 8 bits
Scan type : Progressive
Compression mode : Lossy
Bits/(Pixel*Frame) : 0.097
Stream size : 246 MiB (87%)
Writing library : XviD 1.2.1 (UTC 2008-12-04)

Audio
ID : 1
Format : MPEG Audio
Format version : Version 1
Format profile : Layer 3
Codec ID : 55
Codec ID/Hint : MP3
Duration : 57 min 18 s
Bit rate mode : Constant
Bit rate : 80.0 kb/s
Channel(s) : 1 channel
Sampling rate : 48.0 kHz
Compression mode : Lossy
Stream size : 32.8 MiB (12%)
Alignment : Split accross interleaves
Interleave, duration : 200 ms (5.00 video frames)
Interleave, preload duration : 500 ms

Screenshots

Quick Licks - Steve Lukather (Rock Shuffle)

Quick Licks - Steve Lukather (Rock Shuffle)

Quick Licks - Steve Lukather (Rock Shuffle)


Download link:

rapidgator_net:
http://rapidgator.net/file/7563db7eac2ea479649cb90e6529b091/39so9.Quick.Licks..Steve.Lukather.Rock.Shuffle.part1.rar.html
http://rapidgator.net/file/dd7bd689fb73657d1a60b9af93fc3843/39so9.Quick.Licks..Steve.Lukather.Rock.Shuffle.part2.rar.html
http://rapidgator.net/file/92a554a828818719336ad6d0af63cb6d/39so9.Quick.Licks..Steve.Lukather.Rock.Shuffle.part3.rar.html
http://rapidgator.net/file/571c7644957e375dde12d99a8658d1a3/39so9.Quick.Licks..Steve.Lukather.Rock.Shuffle.part4.rar.html
http://rapidgator.net/file/c7925ea5e063a0fca3cf555f467da36b/39so9.Quick.Licks..Steve.Lukather.Rock.Shuffle.part5.rar.html
http://rapidgator.net/file/e31610a13b16b27b12110f9dd4f1a2d3/39so9.Quick.Licks..Steve.Lukather.Rock.Shuffle.part6.rar.html
http://rapidgator.net/file/9dc29dfa82f40bb3a593e8db5ecae5fd/39so9.Quick.Licks..Steve.Lukather.Rock.Shuffle.part7.rar.html

nitroflare_com:
http://nitroflare.com/view/B7CCBA315718F1F/39so9.Quick.Licks..Steve.Lukather.Rock.Shuffle.part1.rar
http://nitroflare.com/view/BE4D338B66AAB4F/39so9.Quick.Licks..Steve.Lukather.Rock.Shuffle.part2.rar
http://nitroflare.com/view/50A1EEE4EB63DF5/39so9.Quick.Licks..Steve.Lukather.Rock.Shuffle.part3.rar
http://nitroflare.com/view/E5A5409F3004509/39so9.Quick.Licks..Steve.Lukather.Rock.Shuffle.part4.rar
http://nitroflare.com/view/B74D6C23694F6D0/39so9.Quick.Licks..Steve.Lukather.Rock.Shuffle.part5.rar
http://nitroflare.com/view/E4CE10D00C91EBF/39so9.Quick.Licks..Steve.Lukather.Rock.Shuffle.part6.rar
http://nitroflare.com/view/1F759C06F0FE1C5/39so9.Quick.Licks..Steve.Lukather.Rock.Shuffle.part7.rar

uploadgig_com:
http://uploadgig.com/file/download/582A29e383fADbad/39so9.Quick.Licks..Steve.Lukather.Rock.Shuffle.part1.rar
http://uploadgig.com/file/download/fE22607d1F9c03aC/39so9.Quick.Licks..Steve.Lukather.Rock.Shuffle.part2.rar
http://uploadgig.com/file/download/18b87880f3E703c2/39so9.Quick.Licks..Steve.Lukather.Rock.Shuffle.part3.rar
http://uploadgig.com/file/download/7acd4aE4310b7919/39so9.Quick.Licks..Steve.Lukather.Rock.Shuffle.part4.rar
http://uploadgig.com/file/download/Ea99e96D88edf089/39so9.Quick.Licks..Steve.Lukather.Rock.Shuffle.part5.rar
http://uploadgig.com/file/download/B2bbda74B64b53ef/39so9.Quick.Licks..Steve.Lukather.Rock.Shuffle.part6.rar
http://uploadgig.com/file/download/e6256D2ea2965b8d/39so9.Quick.Licks..Steve.Lukather.Rock.Shuffle.part7.rar


Links are Interchangeable - No Password - Single Extraction

Direct Download

Tags: Lukather, Shuffle

Quick Licks - Steve Lukather (Rock Shuffle) Download via Hotfile Rapidshare Fileserve Megaupload & FileSonic, Quick Licks - Steve Lukather (Rock Shuffle) free torrent downloads included crack, serial, keygen.


Attention!Information

Members of Guest cannot leave comments.

SitemapActive Disk Image Professional 9 1 2 | Kydex Funda grilletes Hiatt, TCH, Safariland plegables/rigidos | Crossing Lines